Unknown encoder ‘mpeg4’

SI vous avez installer ffmpeg pour la première fois il se peut que vous obteniez un message d’erreur du style .

  1. /*
  2. Seems stream 0 codec frame rate differs from container frame rate: 23.98 (65535/2733)> 23.98 (10000000/417083)
  3. Input #0, avi, from ‘Votre_fichier_input.avi’:
  4. Duration: 00:21:49.8, start: 0.000000, bitrate: 1055 kb/s
  5. Stream #0.0: Video: mpeg4, yuv420p, 640×480 [PAR 1:1 DAR 4:3], 23.98 tb(r)
  6. Stream #0.1: Audio: mp3, 48000 Hz, stereo, 128 kb/s
  7. Unknown encoder ‘mpeg4’
  8. */

Pour corriger il faut passer les dépôts multimédia de debian.

  1. /*
  2. apt-get install debian-multimedia-keyring
  3. */

Il faut maintenant modifier votre source.list

  1. /*
  2. deb http://www.debian-multimedia.org lenny main
  3. */

On update notre source.list afin que les modifications soient prises en comptes puis installe de ffmpeg à nouveau

  1. /*
  2. apt-get update
  3. apt-get install ffmpeg
  4. */

Vous ne devriez plus avoir d’erreurs (en théorie) . 🙂

Pour plus d’informations se rendre ici

Related posts

Leave a Comment